osu file format v14

[General]
AudioFilename: no.mp3
AudioLeadIn: 1500
PreviewTime: 50111
Countdown: 0
SampleSet: Soft
StackLeniency: 0.7
Mode: 0
LetterboxInBreaks: 0
WidescreenStoryboard: 0

[Editor]
Bookmarks: 15386,78686
DistanceSpacing: 1
BeatDivisor: 2
GridSize: 4
TimelineZoom: 1.3

[Metadata]
Title:No title
TitleUnicode:No title
Artist:Reol
ArtistUnicode:れをる
Creator:Pho
Version:Normal
Source:
Tags:title− giga_p OKiku
BeatmapID:759319
BeatmapSetID:343672

[Difficulty]
HPDrainRate:4
CircleSize:4
OverallDifficulty:4
ApproachRate:6
SliderMultiplier:1.1
SliderTickRate:1

[Events]
//Background and Video events
0,0,"bg.jpg",0,0
//Break Periods
2,69886,73436
//Storyboard Layer 0 (Background)
//Storyboard Layer 1 (Fail)
//Storyboard Layer 2 (Pass)
//Storyboard Layer 3 (Foreground)
//Storyboard Sound Samples

[TimingPoints]
86,300,4,2,1,40,1,0
2486,-100,4,2,1,40,0,0
2786,-100,4,2,1,15,0,0
2936,-100,4,2,1,40,0,0
3236,-100,4,2,1,15,0,0
3386,-100,4,2,1,40,0,0
3986,-100,4,2,1,15,0,0
4136,-100,4,2,1,40,0,0
5186,-100,4,2,1,15,0,0
5336,-100,4,2,1,40,0,0
7286,-100,4,2,1,40,0,0
7436,-100,4,2,1,70,0,0
7586,-100,4,2,1,40,0,0
7736,-100,4,2,1,70,0,0
8036,-100,4,2,1,20,0,0
8186,-100,4,2,2,50,0,0
8486,-100,4,2,1,40,0,0
8786,-100,4,2,1,20,0,0
8936,-100,4,2,1,70,0,0
9686,-100,4,3,0,70,0,0
10886,-100,4,2,3,70,0,0
11486,-100,4,2,3,70,0,0
11786,-100,4,2,1,70,0,0
11936,-100,4,2,3,70,0,0
12086,-100,4,2,1,70,0,0
12236,-100,4,2,1,20,0,0
12386,-100,4,2,1,70,0,0
12836,-100,4,2,1,60,0,0
12986,-100,4,2,1,70,0,0
13136,-100,4,2,1,50,0,0
13286,-100,4,2,1,70,0,0
13886,-100,4,2,1,20,0,0
14036,-100,4,2,1,70,0,0
15236,-100,4,2,1,60,0,0
15386,-100,4,2,1,70,0,0
15536,-100,4,2,1,50,0,0
15686,-100,4,2,1,70,0,0
17636,-100,4,2,1,60,0,0
17786,-100,4,2,1,70,0,0
17936,-100,4,2,1,50,0,0
18086,-100,4,2,1,70,0,0
20036,-100,4,2,1,60,0,0
20186,-100,4,2,1,70,0,0
20336,-100,4,2,1,50,0,0
20486,-100,4,2,1,70,0,0
22436,-100,4,2,1,60,0,0
22586,-100,4,2,1,70,0,0
22736,-100,4,2,1,50,0,0
22886,-100,4,2,1,70,0,0
24836,-100,4,2,1,60,0,0
24986,-100,4,2,1,70,0,0
25136,-100,4,2,1,50,0,0
25286,-100,4,2,1,70,0,0
27236,-100,4,2,1,60,0,0
27386,-100,4,2,1,70,0,0
27536,-100,4,2,1,50,0,0
27686,-100,4,2,1,70,0,0
28886,-100,4,2,0,70,0,0
30086,-100,4,3,3,70,0,0
30311,-100,4,3,3,20,0,0
30386,-100,4,3,3,70,0,0
30461,-100,4,3,3,20,0,0
30536,-100,4,3,3,70,0,0
30611,-100,4,3,3,20,0,0
30686,-100,4,3,3,70,0,0
31136,-100,4,2,1,70,0,0
31736,-100,4,2,1,60,0,0
31886,-100,4,2,1,70,0,0
32186,-100,4,2,1,60,0,0
32336,-100,4,2,1,70,0,0
33086,-100,4,2,1,40,0,0
33236,-100,4,2,1,70,0,0
34136,-100,4,2,1,60,0,0
34286,-100,4,2,1,70,0,0
34436,-100,4,2,1,60,0,0
34511,-100,4,2,1,20,0,0
34586,-100,4,2,1,70,0,0
34661,-100,4,2,1,20,0,0
34736,-100,4,2,1,70,0,0
36536,-100,4,2,1,60,0,0
36686,-100,4,2,1,70,0,0
36836,-100,4,2,1,50,0,0
36986,-100,4,2,1,70,0,0
38936,-100,4,2,1,60,0,0
39086,-100,4,2,1,70,0,0
39236,-100,4,2,1,50,0,0
39386,-100,4,2,1,70,0,0
39536,-100,4,2,1,50,0,0
39686,-100,4,2,1,80,0,0
40061,-100,4,2,1,5,0,0
40136,-100,4,2,1,80,0,0
40211,-100,4,2,1,5,0,0
40286,-100,4,2,1,80,0,0
40511,-100,4,2,1,5,0,0
40586,-100,4,2,1,80,0,0
40661,-100,4,2,1,5,0,0
40736,-100,4,2,1,70,0,0
43736,-100,4,2,1,60,0,0
43886,-100,4,2,1,70,0,0
44036,-100,4,2,1,50,0,0
44186,-100,4,2,1,70,0,0
44336,-100,4,2,1,70,0,0
44486,-100,4,2,1,70,0,0
46136,-100,4,2,1,60,0,0
46661,-100,4,2,1,20,0,0
46736,-100,4,2,1,60,0,0
46811,-100,4,2,1,20,0,0
46886,-100,4,2,1,70,0,0
48086,-100,4,3,0,70,0,0
49286,-100,4,2,3,70,0,0
49661,-100,4,2,3,70,0,0
49736,-100,4,2,3,70,0,0
49811,-100,4,2,3,70,0,0
49886,-100,4,2,3,70,0,0
49961,-100,4,2,3,70,0,0
50036,-100,4,2,3,70,0,0
50111,-100,4,2,3,70,0,0
50186,-100,4,2,3,70,0,0
50261,-100,4,2,3,20,0,0
50336,-100,4,2,3,70,0,0
50411,-100,4,2,3,20,0,0
50486,-100,4,2,1,80,0,0
55286,-100,4,2,1,70,0,0
60086,-100,4,2,1,80,0,0
64886,-100,4,2,1,70,0,0
67286,-100,4,3,0,70,0,0
68486,-100,4,3,3,80,0,0
69236,-100,4,3,3,70,0,0
69386,-100,4,2,1,60,0,0
69536,-100,4,3,3,50,0,0
69686,-100,4,2,1,70,0,0
76886,-100,4,3,0,70,0,0
78086,-100,4,2,3,60,0,0
78986,-100,4,2,3,60,0,0
79136,-100,4,2,3,60,0,0
79286,-100,4,2,2,50,0,0
82436,-100,4,2,2,50,0,0
82586,-100,4,2,2,50,0,0
85436,-100,4,2,2,20,0,0
85511,-100,4,2,2,60,0,0
85661,-100,4,2,2,20,0,0
85736,-100,4,2,2,60,0,0
89036,-100,4,2,2,20,0,0
89186,-100,4,2,2,60,0,0
93086,-100,4,2,2,20,0,0
93236,-100,4,2,2,60,0,0
94436,-100,4,2,2,20,0,0
94586,-100,4,2,2,60,0,0
94661,-100,4,2,2,20,0,0
94736,-100,4,2,2,60,0,0
94811,-100,4,2,2,20,0,0
94886,-100,4,2,2,60,0,0
95636,-100,4,2,2,20,0,0
95786,-100,4,2,2,60,0,0
97286,-100,4,2,3,70,0,0
97736,-100,4,2,3,70,0,0
97886,-100,4,2,3,70,0,0
98186,-100,4,2,3,70,0,0
98336,-100,4,2,3,70,0,0
98486,-100,4,2,1,70,0,0
99011,-100,4,2,1,20,0,0
99086,-100,4,2,1,70,0,0
101411,-100,4,2,1,20,0,0
101486,-100,4,2,1,70,0,0
101711,-100,4,2,1,20,0,0
101786,-100,4,2,1,70,0,0
104111,-100,4,2,1,20,0,0
104186,-100,4,2,1,70,0,0
105311,-100,4,2,1,20,0,0
105386,-100,4,2,1,70,0,0
108836,-100,4,2,1,60,0,0
108986,-100,4,2,1,70,0,0
109136,-100,4,2,1,50,0,0
109286,-100,4,2,1,70,0,0
111161,-100,4,2,1,20,0,0
111236,-100,4,2,1,60,0,0
111311,-100,4,2,1,20,0,0
111386,-100,4,2,1,70,0,0
111536,-100,4,2,1,50,0,0
111686,-100,4,2,1,70,0,0
115286,-100,4,3,0,70,0,0
116486,-100,4,3,3,70,0,0
116861,-100,4,3,3,20,0,0
116936,-100,4,3,3,70,0,0
117011,-100,4,3,3,20,0,0
117086,-100,4,3,3,70,0,0
117161,-100,4,3,3,20,0,0
117236,-100,4,3,3,70,0,0
117311,-100,4,3,3,20,0,0
117386,-100,4,3,3,70,0,0
117686,-100,4,2,1,80,0,0
122486,-100,4,2,1,70,0,0
127286,-100,4,2,1,80,0,0
128711,-100,4,2,1,20,0,0
128786,-100,4,2,1,80,0,0
129161,-100,4,2,1,80,0,0
129236,-100,4,2,1,80,0,0
129311,-100,4,2,1,80,0,0
129386,-100,4,2,1,80,0,0
129461,-100,4,2,1,80,0,0
129536,-100,4,2,1,80,0,0
129611,-100,4,2,1,80,0,0
129686,-100,4,2,1,80,0,0
132086,-100,4,2,1,70,0,0
134486,-100,4,3,0,70,0,0
135686,-100,4,2,3,80,0,0
136586,-100,4,2,3,80,0,0
136661,-100,4,2,3,80,0,0
136811,-100,4,2,3,80,0,0
136886,-100,4,2,1,80,0,0
138311,-100,4,2,1,20,0,0
138386,-100,4,2,1,80,0,0
141311,-100,4,2,1,20,0,0
141386,-100,4,2,1,80,0,0
141686,-100,4,2,1,70,0,0
145061,-100,4,2,1,20,0,0
145136,-100,4,2,1,70,0,0
145211,-100,4,2,1,20,0,0
145286,-100,4,2,1,70,0,0
146486,-100,4,2,1,80,0,0
151286,-100,4,2,1,70,0,0
153686,-100,4,3,0,70,0,0
154886,-100,4,3,3,80,0,0
155786,-100,4,3,3,80,0,0
155936,-100,4,3,3,80,0,0
156086,-100,4,2,2,60,0,0
156236,-100,4,2,2,20,0,0
156386,-100,4,2,2,60,0,0
156836,-100,4,2,2,20,0,0
156986,-100,4,2,2,60,0,0
159311,-100,4,2,1,20,0,0
159386,-100,4,2,2,60,0,0
160286,-100,4,2,2,20,0,0
160436,-100,4,2,2,60,0,0
163211,-100,4,2,2,20,0,0
163286,-100,4,2,2,60,0,0
164111,-100,4,2,2,60,0,0
164186,-100,4,2,2,60,0,0
165086,-100,4,2,1,60,0,0
165161,-100,4,2,1,20,0,0
165236,-100,4,2,1,60,0,0
165311,-100,4,2,1,20,0,0
165386,-100,4,2,1,60,0,0
165686,-100,4,2,1,60,0,0
166436,-100,4,2,1,50,0,0
166586,-100,4,2,1,60,0,0
166736,-100,4,2,1,40,0,0
166886,-100,4,2,1,60,0,0
167336,-100,4,2,1,60,0,0
168236,-100,4,2,1,20,0,0
168386,-100,4,2,1,60,0,0
168836,-100,4,2,1,50,0,0
168986,-100,4,2,1,60,0,0
169136,-100,4,2,1,40,0,0
169286,-100,4,2,1,60,0,0
169736,-100,4,2,2,60,0,0
170036,-100,4,2,2,20,0,0
170186,-100,4,2,1,60,0,0
171236,-100,4,2,1,50,0,0
171386,-100,4,2,1,60,0,0
171536,-100,4,2,1,40,0,0
171686,-100,4,2,1,60,0,0
172886,-100,4,3,0,60,0,0
174086,-100,4,3,3,70,0,0
174536,-100,4,3,3,70,0,0
174611,-100,4,3,3,20,0,0
174686,-100,4,3,3,70,0,0
174761,-100,4,3,3,20,0,0
174836,-100,4,3,3,70,0,0
174911,-100,4,3,3,20,0,0
174986,-100,4,2,1,70,0,0
175061,-100,4,3,3,20,0,0
175136,-100,4,3,3,70,0,0
175211,-100,4,3,3,20,0,0
175286,-100,4,2,1,70,0,0
176336,-100,4,2,1,20,0,0
176486,-100,4,2,1,80,0,0
181286,-100,4,2,1,70,0,0
182261,-100,4,2,1,20,0,0
182336,-100,4,2,1,70,0,0
182411,-100,4,2,1,20,0,0
182486,-100,4,2,1,70,0,0
184661,-100,4,2,1,20,0,0
184736,-100,4,2,1,70,0,0
184811,-100,4,2,1,20,0,0
184886,-100,4,2,1,70,0,0
185861,-100,4,2,1,20,0,0
185936,-100,4,2,1,70,0,0
186011,-100,4,2,1,20,0,0
186086,-100,4,2,1,80,0,0
187511,-100,4,2,1,20,0,0
187586,-100,4,2,1,80,0,0
190511,-100,4,2,1,20,0,0
190586,-100,4,2,1,80,0,0
190661,-100,4,2,1,80,0,0
190736,-100,4,2,1,80,0,0
190811,-100,4,2,1,80,0,0
190886,-100,4,2,1,70,0,0
191861,-100,4,2,1,20,0,0
191936,-100,4,2,1,70,0,0
192011,-100,4,2,1,20,0,0
192086,-100,4,2,1,70,0,0
193286,-100,4,3,0,70,0,0
194486,-100,4,3,3,80,0,0
194711,-100,4,3,3,20,0,0
194786,-100,4,3,3,80,0,0
194861,-100,4,3,3,20,0,0
194936,-100,4,3,3,80,0,0
195011,-100,4,3,3,20,0,0
195086,-100,4,3,3,80,0,0
195161,-100,4,3,3,20,0,0
195236,-100,4,3,3,80,0,0
195311,-100,4,3,3,20,0,0
195386,-100,4,2,1,80,0,0
195461,-100,4,3,3,20,0,0
195536,-100,4,3,3,80,0,0
195611,-100,4,3,3,20,0,0
195686,-100,4,2,1,80,0,1
197111,-100,4,2,1,20,0,1
197186,-100,4,2,1,80,0,1
201461,-100,4,2,1,20,0,1
201536,-100,4,2,1,80,0,1
201611,-100,4,2,1,20,0,1
201686,-100,4,2,1,80,0,1
204461,-100,4,2,1,20,0,1
204536,-100,4,2,1,80,0,1
205061,-100,4,2,1,20,0,1
205136,-100,4,2,1,80,0,1
205211,-100,4,2,1,20,0,1
205286,-100,4,2,1,80,0,1
206711,-100,4,2,1,20,0,1
206786,-100,4,2,1,80,0,1
209186,-100,4,2,1,70,0,1
209336,-100,4,2,1,80,0,1
209486,-100,4,2,1,60,0,1
209636,-100,4,2,1,80,0,1
209786,-100,4,2,1,50,0,1
209861,-100,4,2,1,20,0,1
209936,-100,4,2,1,80,0,1
210011,-100,4,2,1,20,0,1
210086,-100,4,2,1,80,0,1
212486,-100,4,3,0,80,0,1
213686,-100,4,3,3,80,0,1
214586,-100,4,2,1,80,0,1
214736,-100,4,3,3,80,0,1
214886,-100,4,2,1,70,0,0
218486,-100,4,2,1,60,0,0
218561,-100,4,2,1,70,0,0
223286,-100,4,2,1,60,0,0
223361,-100,4,2,1,80,0,0
224261,-100,4,2,1,20,0,0
224336,-100,4,2,1,80,0,0
224411,-100,4,2,1,20,0,0
224486,-100,4,2,1,70,0,0
225461,-100,4,2,1,20,0,0
225536,-100,4,2,1,70,0,0
225611,-100,4,2,1,20,0,0
225686,-100,4,2,1,70,0,0
226811,-100,4,2,1,20,0,0
226886,-100,4,2,1,70,0,0
228011,-100,4,2,1,20,0,0
228086,-100,4,2,1,60,0,0
228161,-100,4,2,1,20,0,0
228236,-100,4,2,1,70,0,0
229286,-100,4,2,1,80,0,0
230036,-100,4,2,1,60,0,0
230486,-100,4,2,1,85,0,0
231236,-100,4,2,1,65,0,0
231686,-100,4,3,0,80,0,0
232886,-100,4,3,3,90,0,0
233786,-100,4,2,1,90,0,0
233936,-100,4,3,3,90,0,0
234086,-100,4,2,1,100,0,0

[Colours]
Combo1 : 0,234,234
Combo2 : 55,155,255
Combo3 : 175,190,228
Combo4 : 220,52,111

[HitObjects]
65,231,2486,6,0,B|104:278|172:282|216:244,1,165,2|2,0:0|0:0,0:0:0:0:
349,152,3386,2,0,L|338:72,1,55,,,0:0:0:0:
328,43,3686,2,0,B|270:13|204:20|155:54,1,165,2|2,0:0|0:0,0:0:0:0:
88,119,4436,2,0,B|118:150|160:160|198:150,1,110,0|0,0:0|0:0,0:0:0:0:
241,136,4886,6,0,B|284:109|339:115|377:148|392:189,1,165,2|2,0:0|0:0,0:0:0:0:
405,280,5636,1,0,0:0:0:0:
305,348,5936,2,0,L|243:359,2,55,0|2|0,0:0|0:0|0:0,0:0:0:0:
245,254,6536,2,0,B|211:225|162:228|133:258,1,110,2|0,0:0|0:0,0:0:0:0:
96,279,6986,2,0,B|65:244|57:198|67:157,1,110,0|2,0:0|0:0,0:0:0:0:
141,99,7586,6,0,L|206:105,1,55,2|0,0:0|0:0,0:0:0:0:
354,150,8186,2,0,L|289:156,1,55,8|8,0:0|0:0,0:0:0:0:
257,190,8486,2,0,B|229:244|245:308|289:344,1,165,2|2,0:0|0:0,0:0:0:0:
393,362,9236,1,0,0:0:0:0:
393,362,9386,1,2,0:0:0:0:
461,275,9686,5,2,0:3:0:0:
374,207,9986,2,0,L|308:194,1,55,2|2,0:3|0:3,0:0:0:0:
382,106,10436,2,0,L|448:93,1,55,2|2,0:3|0:3,0:0:0:0:
349,27,10886,2,0,L|233:55,1,110,2|2,0:0|0:0,0:0:0:0:
195,81,11336,2,0,B|152:154|217:182|179:247,1,165,6|10,0:3|0:0,0:0:0:0:
113,326,12086,6,0,B|78:298|67:252|81:213,1,110,4|0,0:0|0:0,0:0:0:0:
85,173,12536,2,0,B|109:137|106:91|83:59,2,110,2|0|10,0:0|0:0|0:0,0:0:0:0:
120,215,13286,2,0,L|296:208,2,165,6|6|8,0:3|0:3|0:0,0:0:0:0:
79,316,14486,6,0,L|203:311,1,110,4|0,0:3|0:0,0:0:0:0:
230,348,14936,2,0,B|265:375|312:374|345:351,2,110,2|2|10,0:0|0:0|0:0,0:0:0:0:
203,299,15686,2,0,B|168:239|244:200|190:113,2,165,6|6|10,0:3|0:3|0:2,0:0:0:0:
309,270,16886,6,0,L|431:259,1,110,6|0,0:3|0:0,0:0:0:0:
464,228,17336,1,2,0:0:0:0:
421,126,17636,2,0,B|382:104|337:105|301:124,1,110,2|10,0:0|0:0,0:0:0:0:
270,151,18086,2,0,B|220:189|150:177|115:127,2,165,4|6|8,0:3|0:3|0:0,0:0:0:0:
205,61,19286,6,0,L|329:40,1,110,4|0,0:3|0:0,0:0:0:0:
366,56,19736,1,2,0:0:0:0:
443,133,20036,2,0,B|466:172|462:219|437:252,1,110,2|8,0:0|0:0,0:0:0:0:
425,289,20486,6,0,B|388:270|345:277|316:303,1,110,4|2,0:3|0:0,0:0:0:0:
276,331,20936,2,0,B|198:358|189:296|103:326,1,165,4|8,0:3|0:0,0:0:0:0:
37,243,21686,5,4,0:3:0:0:
111,162,21986,1,0,0:0:0:0:
111,162,22136,2,0,B|129:124|128:82|113:47,2,110,2|2|10,0:0|0:0|0:0,0:0:0:0:
141,207,22886,2,0,B|192:222|192:222|317:194,2,165,6|6|8,0:3|0:3|0:0,0:0:0:0:
125,316,24086,5,4,0:3:0:0:
219,372,24386,1,0,0:0:0:0:
273,368,24536,2,0,L|400:358,2,110,2|2|10,0:0|0:0|0:0,0:0:0:0:
219,372,25286,2,0,B|172:332|164:266|193:216,2,165,4|6|8,0:3|0:3|0:0,0:0:0:0:
289,287,26486,5,4,0:3:0:0:
316,239,26636,2,0,B|355:218|355:218|432:227,1,110,0|2,0:0|0:0,0:0:0:0:
427,115,27236,2,0,L|503:121,2,55,2|8|10,0:0|0:0|0:0,0:0:0:0:
372,118,27686,2,0,B|391:78|382:32|354:3,1,110,6|0,0:3|0:0,0:0:0:0:
275,81,28286,2,0,B|256:121|265:167|293:196,1,110,0|10,0:0|0:0,0:0:0:0:
360,265,28886,5,2,0:3:0:0:
266,322,29186,2,0,L|206:318,1,55,2|2,0:3|0:3,0:0:0:0:
144,230,29636,2,0,L|204:234,1,55,2|6,0:3|0:3,0:0:0:0:
304,203,30086,2,0,B|315:243|352:268|390:266,2,110,2|2|2,0:0|0:0|0:0,0:0:0:0:
207,152,30986,1,4,0:3:0:0:
207,152,31136,6,0,B|151:124|84:151|63:209,2,165,6|0|2,0:0|0:0|0:0,0:0:0:0:
301,208,32336,2,0,B|357:236|424:209|445:151,2,165,10|0|4,0:0|0:0|0:3,0:0:0:0:
250,184,33386,1,10,0:0:0:0:
250,184,33536,6,0,L|242:60,1,110,6|0,0:3|0:0,0:0:0:0:
198,40,33986,2,0,B|156:20|107:35|82:71,1,110,0|0,0:0|0:0,0:0:0:0:
53,157,34586,1,8,0:0:0:0:
53,157,34736,2,0,L|72:305,1,110,10|0,0:0|0:0,0:0:0:0:
99,311,35186,2,0,B|122:280|162:268|199:280|222:304,1,110,,,0:0:0:0:
296,335,35786,1,10,0:0:0:0:
296,335,35936,6,0,B|347:348|347:348|467:332,2,165,2|0|2,0:0|0:0|0:0,0:0:0:0:
254,254,37136,2,0,B|203:241|203:241|83:257,2,165,10|0|0,0:0|0:0|0:0,0:0:0:0:
304,276,38186,1,8,0:0:0:0:
304,276,38336,6,0,B|343:252|358:206|347:166,1,110,2|0,0:3|0:0,0:0:0:0:
289,90,38936,2,0,B|250:114|235:160|246:200,2,110,2|6|10,0:0|0:3|0:0,0:0:0:0:
343,86,39686,2,0,L|452:79,2,110,0|0|0,0:0|0:0|0:0,0:0:0:0:
245,138,40586,1,8,0:0:0:0:
245,138,40736,6,0,B|276:192|343:210|396:185,1,165,2|0,0:0|0:0,0:0:0:0:
451,277,41486,2,0,B|409:269|370:288|348:320,1,110,0|8,0:3|0:0,0:0:0:0:
305,341,41936,2,0,B|250:360|250:360|124:319,1,165,10|0,0:0|0:0,0:0:0:0:
68,251,42686,2,0,B|101:219|147:213|185:229,1,110,0|8,0:0|0:0,0:0:0:0:
214,196,43136,6,0,L|215:65,2,110,6|0|2,0:3|0:0|0:3,0:0:0:0:
282,282,44036,2,0,L|282:357,2,55,2|8|8,0:0|0:0|0:0,0:0:0:0:
311,235,44486,2,0,B|333:197|377:181|416:191,1,110,2|0,0:3|0:0,0:0:0:0:
482,111,45086,1,0,0:0:0:0:
411,26,45386,1,10,0:0:0:0:
411,26,45536,6,0,L|294:40,1,110,0|0,0:0|0:0,0:0:0:0:
223,117,46136,2,0,B|187:87|135:93|106:125,1,110,2|2,0:3|0:0,0:0:0:0:
77,146,46586,2,0,L|59:222,1,55,8|10,0:0|0:0,0:0:0:0:
106,234,46886,2,0,L|124:310,1,55,0|0,0:0|0:0,0:0:0:0:
135,340,47186,2,0,B|173:312|219:307|260:320,1,110,0|0,0:0|0:0,0:0:0:0:
335,369,47786,1,10,0:0:0:0:
419,298,48086,5,2,0:3:0:0:
335,226,48386,2,0,L|323:166,1,55,2|2,0:3|0:3,0:0:0:0:
426,131,48836,2,0,L|437:61,1,55,6|2,0:3|0:3,0:0:0:0:
328,45,49286,2,0,B|286:24|235:43|217:86,1,110,2|2,0:0|0:0,0:0:0:0:
162,155,49886,2,0,B|126:178|81:174|50:151,1,110,2|2,0:0|0:0,0:0:0:0:
121,66,50486,6,0,B|168:44|223:60|254:102|257:147,2,165,6|2|4,0:1|0:1|0:3,0:0:0:0:
62,159,51686,2,0,L|68:285,1,110,2|0,0:1|0:1,0:0:0:0:
70,324,52136,1,2,0:1:0:0:
108,364,52286,2,0,B|150:379|194:373|229:351,1,110,2|8,0:0|0:0,0:0:0:0:
292,279,52886,6,0,B|339:237|407:235|455:268,2,165,2|2|4,0:1|0:1|0:3,0:0:0:0:
222,193,54086,2,0,L|104:182,2,110,2|2|2,0:1|0:0|0:0,0:0:0:0:
289,106,54986,1,8,0:0:0:0:
382,164,55286,6,0,B|428:178|475:160|503:122|507:81,2,165,2|2|4,0:1|0:1|0:3,0:0:0:0:
289,106,56486,2,0,L|164:89,1,110,2|0,0:1|0:0,0:0:0:0:
138,127,56936,1,2,0:1:0:0:
98,165,57086,2,0,L|223:182,1,110,0|8,0:0|0:0,0:0:0:0:
310,217,57686,6,0,B|340:323|340:323|317:373,2,165,2|2|6,0:1|0:1|0:3,0:0:0:0:
259,118,58886,1,2,0:1:0:0:
341,44,59186,1,2,0:0:0:0:
440,90,59486,2,0,B|457:127|451:168|429:199,1,110,0|10,0:0|0:0,0:0:0:0:
342,260,60086,6,0,B|260:300|260:300|167:286,2,165,6|2|4,0:1|0:1|0:3,0:0:0:0:
292,161,61286,2,0,B|246:129|190:126|144:149,1,110,2|0,0:1|0:1,0:0:0:0:
135,152,61736,1,2,0:1:0:0:
94,183,61886,2,0,B|77:223|80:265|97:300,1,110,0|8,0:0|0:0,0:0:0:0:
191,341,62486,6,0,L|363:331,2,165,2|2|4,0:1|0:1|0:3,0:0:0:0:
176,231,63686,1,2,0:1:0:0:
240,141,63986,1,2,0:0:0:0:
349,155,64286,1,2,0:0:0:0:
405,249,64586,6,0,L|414:325,2,55,8|0|2,0:0|0:0|0:1,0:0:0:0:
297,222,65186,2,0,L|305:292,1,55,0|2,0:0|0:1,0:0:0:0:
306,331,65486,2,0,B|267:356|218:351|186:322,1,110,0|6,0:0|0:3,0:0:0:0:
121,257,66086,6,0,B|160:232|209:237|241:266,1,110,2|0,0:1|0:0,0:0:0:0:
310,184,66686,2,0,L|316:103,2,55,0|4|8,0:0|0:3|0:0,0:0:0:0:
391,257,67286,2,0,B|435:246|462:206|459:164,1,110,2|2,0:3|0:3,0:0:0:0:
458,123,67736,2,0,B|452:77|415:44|372:41,1,110,2|6,0:3|0:3,0:0:0:0:
334,45,68186,1,2,0:3:0:0:
235,94,68486,6,0,B|197:112|153:101|127:72,2,110,2|6|6,0:0|0:0|0:0,0:0:0:0:
319,164,69386,1,8,0:0:0:0:
259,256,69686,1,4,0:0:0:0:
256,192,74486,12,0,76286,0:0:0:0:
253,274,76886,5,2,0:3:0:0:
161,334,77186,2,0,L|94:317,1,55,2|2,0:3|0:3,0:0:0:0:
98,210,77636,2,0,L|64:151,1,55,2|2,0:3|0:3,0:0:0:0:
112,60,78086,2,0,B|145:32|191:31|225:53,1,110,2|2,0:0|0:0,0:0:0:0:
269,143,78686,2,0,B|305:159|344:152|372:129,1,110,2|6,0:0|0:3,0:0:0:0:
456,58,79286,6,0,L|455:193,1,110,4|0,0:0|0:0,0:0:0:0:
457,223,79736,1,2,0:0:0:0:
457,223,79886,2,0,B|422:221|391:245|383:279|393:308,1,110,0|8,0:0|0:0,0:0:0:0:
300,358,80486,2,0,L|188:343,1,110,2|0,0:0|0:0,0:0:0:0:
138,327,80936,1,2,0:0:0:0:
138,327,81086,2,0,B|154:279|154:279|133:207,1,110,0|0,0:0|0:0,0:0:0:0:
103,117,81686,6,0,B|143:134|188:116|207:79,1,110,2|0,0:0|0:0,0:0:0:0:
229,41,82136,1,2,0:0:0:0:
229,41,82286,2,0,B|273:4|338:15|369:62,1,110,0|8,0:0|0:0,0:0:0:0:
393,120,82886,2,0,B|438:123|438:123|494:107,2,82.5,2|2|10,0:0|0:0|0:0,0:0:0:0:
348,152,83486,2,0,B|318:190|321:241|348:276,1,110,0|10,0:0|0:0,0:0:0:0:
417,329,84086,6,0,B|384:361|384:361|273:371,1,110,2|0,0:0|0:0,0:0:0:0:
265,357,84536,1,2,0:0:0:0:
265,357,84686,2,0,B|229:327|220:278|239:239,1,110,0|0,0:0|0:0,0:0:0:0:
280,159,85286,2,0,B|316:129|325:80|306:41,1,110,2|0,0:0|0:0,0:0:0:0:
270,25,85736,1,2,0:0:0:0:
270,25,85886,2,0,B|223:17|223:17|150:41,1,110,0|0,0:0|0:0,0:0:0:0:
60,74,86486,6,0,B|41:112|46:154|67:187,1,110,2|0,0:0|0:0,0:0:0:0:
108,211,86936,2,0,B|137:249|129:302|95:331,1,110,2|0,0:0|0:0,0:0:0:0:
87,363,87386,1,8,0:0:0:0:
190,326,87686,2,0,B|235:308|235:308|331:341,1,110,2|0,0:0|0:0,0:0:0:0:
343,351,88136,1,10,0:0:0:0:
343,351,88286,2,0,L|409:339,2,55,0|0|8,0:0|0:0|0:0,0:0:0:0:
401,257,88886,6,0,B|431:221|435:174|417:135,1,110,2|0,0:0|0:0,0:0:0:0:
388,111,89336,2,0,B|343:100|343:100|314:102|314:102|267:95,1,110,2|0,0:0|0:0,0:0:0:0:
238,60,89786,1,8,0:0:0:0:
136,17,90086,2,0,B|117:57|126:102|152:132,1,110,2|0,0:0|0:0,0:0:0:0:
176,166,90536,2,0,B|208:189|208:189|297:179,1,110,2|0,0:0|0:0,0:0:0:0:
332,172,90986,1,8,0:0:0:0:
422,234,91286,6,0,B|375:243|346:289|356:334,1,110,2|0,0:0|0:0,0:0:0:0:
347,365,91736,2,0,L|217:356,1,110,2|0,0:0|0:0,0:0:0:0:
183,368,92186,2,0,L|167:285,1,55,8|0,0:0|0:0,0:0:0:0:
196,263,92486,2,0,B|232:224|228:164|192:130,1,110,2|0,0:0|0:0,0:0:0:0:
172,123,92936,2,0,B|127:112|127:112|93:119|93:119|50:111,1,110,10|0,0:0|0:0,0:0:0:0:
19,81,93386,1,8,0:0:0:0:
112,23,93686,6,0,B|157:6|205:23|230:60,1,110,2|0,0:0|0:0,0:0:0:0:
255,80,94136,2,0,L|388:73,1,110,2|0,0:0|0:0,0:0:0:0:
399,31,94586,1,8,0:0:0:0:
475,110,94886,2,0,B|473:149|441:178|402:180|373:162,1,110,2|0,0:0|0:0,0:0:0:0:
346,154,95336,2,0,L|223:161,1,110,2|0,0:0|0:0,0:0:0:0:
199,200,95786,1,8,0:0:0:0:
96,159,96086,6,0,B|71:104|71:104|91:42,1,110,2|2,3:3|3:3,0:0:0:0:
195,46,96686,2,0,B|220:101|220:101|200:163,1,110,0|8,3:0|3:2,0:0:0:0:
145,241,97286,2,0,L|88:249,2,55,2|2|2,0:0|0:0|0:0,0:0:0:0:
223,318,97886,2,0,L|280:310,2,55,2|6|6,0:0|0:3|0:3,0:0:0:0:
262,215,98486,6,0,B|294:175|350:169|389:196,2,110,4|2|0,0:0|0:0|0:0,0:0:0:0:
341,291,99386,2,0,L|413:298,1,55,6|0,0:3|0:0,0:0:0:0:
448,279,99686,2,0,B|485:254|496:207|480:169,1,110,6|0,0:3|0:0,0:0:0:0:
470,129,100136,2,0,B|453:87|414:61|373:57,1,110,6|4,0:3|0:3,0:0:0:0:
334,59,100586,1,10,0:0:0:0:
232,101,100886,6,0,B|193:116|151:106|122:81,2,110,0|2|0,0:0|0:0|0:0,0:0:0:0:
326,156,101786,2,0,L|329:225,1,55,6|0,0:3|0:3,0:0:0:0:
328,265,102086,2,0,B|306:304|256:316|219:294,1,110,6|0,0:3|0:0,0:0:0:0:
190,265,102536,2,0,B|158:224|98:220|56:257|50:303,1,165,6|8,0:3|0:0,0:0:0:0:
40,175,103286,6,0,L|30:101,2,55,4|0|2,0:3|0:0|0:0,0:0:0:0:
40,175,103886,2,0,L|170:160,1,110,2|4,0:0|0:3,0:0:0:0:
243,219,104486,6,0,L|243:286,2,55,4|0|2,0:3|0:0|0:0,0:0:0:0:
243,219,105086,2,0,L|385:238,1,110,2|8,0:0|0:0,0:0:0:0:
442,170,105686,6,0,B|477:135|475:79|441:46,2,110,4|2|0,0:3|0:3|0:0,0:0:0:0:
353,103,106586,1,6,0:3:0:0:
262,166,106886,2,0,L|274:293,1,110,6|0,0:3|0:0,0:0:0:0:
273,330,107336,2,0,B|164:352|164:352|110:338,1,165,6|2,0:3|0:0,0:0:0:0:
133,228,108086,6,0,B|159:178|141:118|96:90,1,110,,,0:0:0:0:
105,72,108536,2,0,B|147:35|147:35|219:32,2,110,2|2|8,0:0|0:0|0:0,0:0:0:0:
59,103,109286,6,0,B|17:121|-5:166|3:208,1,110,,,0:0:0:0:
19,241,109736,2,0,B|84:244|84:244|127:210|127:210|210:211,1,165,2|2,0:0|0:0,0:0:0:0:
282,216,110486,6,0,B|346:217|346:217|394:257,1,110,6|0,0:3|0:0,0:0:0:0:
400,298,110936,2,0,B|436:263|491:264|526:296,2,110,2|2|10,0:3|0:0|0:0,0:0:0:0:
406,353,111686,6,0,B|370:367|331:360|302:339,1,110,4|0,0:3|0:0,0:0:0:0:
273,294,112136,2,0,B|277:244|277:244|314:201|314:201|322:103,1,165,6|10,0:3|0:0,0:0:0:0:
393,62,112886,6,0,B|361:29|313:25|276:46,1,110,0|0,0:0|0:0,0:0:0:0:
215,118,113486,2,0,B|247:151|295:155|332:134,1,110,0|6,0:0|0:3,0:0:0:0:
426,149,114086,2,0,L|420:265,1,110,2|0,0:0|0:0,0:0:0:0:
415,313,114536,2,0,B|389:280|345:270|307:286|286:316,1,110,6|4,0:3|0:3,0:0:0:0:
275,327,114986,1,10,0:0:0:0:
172,366,115286,5,2,3:0:0:0:
92,291,115586,2,0,L|80:228,1,55,2|2,3:0|3:0,0:0:0:0:
187,208,116036,2,0,L|201:145,1,55,6|2,3:0|3:0,0:0:0:0:
180,45,116486,6,0,B|147:30|147:30|65:47,1,110,2|2,0:0|0:0,0:0:0:0:
147,127,117086,2,0,B|179:141|179:141|261:124,1,110,2|2,0:0|0:0,0:0:0:0:
339,59,117686,6,0,B|404:37|473:74|491:138,2,165,6|2|4,0:1|0:1|0:3,0:0:0:0:
301,99,118736,1,4,0:3:0:0:
301,99,118886,2,0,L|308:234,1,110,2|0,0:1|0:0,0:0:0:0:
310,264,119336,1,2,0:1:0:0:
310,264,119486,2,0,B|289:304|245:324|203:317,1,110,0|8,0:0|0:0,0:0:0:0:
149,233,120086,6,0,B|96:225|47:268|47:328|80:363,2,165,2|2|4,0:1|0:1|0:3,0:0:0:0:
201,218,121136,1,4,0:3:0:0:
224,168,121286,1,2,0:1:0:0:
159,79,121586,1,2,0:0:0:0:
260,35,121886,2,0,B|296:16|337:17|370:35,1,110,0|8,0:0|0:0,0:0:0:0:
460,89,122486,6,0,L|463:224,1,110,2|0,0:1|0:0,0:0:0:0:
463,253,122936,2,0,B|430:297|370:307|326:281,1,110,2|0,0:1|0:0,0:0:0:0:
314,275,123386,1,4,0:3:0:0:
278,170,123686,2,0,B|322:185|370:157|379:112,1,110,2|0,0:1|0:0,0:0:0:0:
380,77,124136,2,0,B|366:32|316:9|273:26,1,110,2|4,0:1|0:3,0:0:0:0:
251,54,124586,2,0,L|165:58,1,55,8|4,0:0|0:3,0:0:0:0:
141,55,124886,6,0,B|159:102|140:153|99:177,1,110,2|0,0:1|0:1,0:0:0:0:
78,191,125336,2,0,B|36:229|34:293|68:334,1,110,2|4,0:1|0:3,0:0:0:0:
73,339,125786,1,6,0:3:0:0:
160,271,126086,2,0,L|294:267,1,110,2|2,0:1|0:0,0:0:0:0:
327,361,126686,2,0,L|193:365,1,110,0|8,0:0|0:0,0:0:0:0:
269,267,127286,6,0,B|329:249|365:192|360:134,2,165,6|2|4,0:1|0:1|0:3,0:0:0:0:
213,262,128336,1,4,0:3:0:0:
213,262,128486,2,0,L|84:244,1,110,2|0,0:1|0:0,0:0:0:0:
61,211,128936,1,2,0:1:0:0:
61,211,129086,2,0,B|37:174|39:127|63:94,1,110,0|8,0:0|0:0,0:0:0:0:
149,49,129686,6,0,B|170:84|165:127|141:156,1,110,2|0,0:1|0:0,0:0:0:0:
146,207,130136,2,0,B|202:243|272:236|319:196,1,165,2|6,0:1|0:3,0:0:0:0:
325,157,130736,1,6,0:3:0:0:
325,157,130886,2,0,B|311:102|311:102|325:10,2,110,2|2|2,0:1|0:0|0:0,0:0:0:0:
408,228,131786,2,0,L|466:219,2,55,2|0|2,0:0|0:0|0:1,0:0:0:0:
332,308,132386,6,0,L|257:317,1,55,0|2,0:0|0:1,0:0:0:0:
235,278,132686,2,0,B|113:298,1,110,0|4,0:0|0:3,0:0:0:0:
21,262,133286,2,0,B|60:238|71:188|48:151,1,110,2|0,0:1|0:0,0:0:0:0:
39,113,133736,1,2,0:1:0:0:
39,113,133886,2,0,B|82:81|82:81|157:88,1,110,0|10,0:0|0:0,0:0:0:0:
240,128,134486,6,0,B|270:159|318:159|348:132,1,110,2|2,0:3|0:3,0:0:0:0:
379,98,134936,2,0,B|411:75|453:81|479:107,1,110,2|6,3:0|3:0,0:0:0:0:
501,158,135386,1,0,0:0:0:0:
422,235,135686,2,0,L|417:307,2,55,2|2|2,0:0|0:0|0:0,0:0:0:0:
326,289,136286,2,0,L|321:361,2,55,2|6|6,0:0|0:3|0:3,0:0:0:0:
233,349,136886,6,0,B|187:353|146:326|128:288,1,110,6|0,0:1|0:0,0:0:0:0:
118,252,137336,2,0,B|133:194|133:194|110:135,1,110,2|0,0:1|0:0,0:0:0:0:
88,98,137786,2,0,L|148:73,1,55,6|4,0:3|0:3,0:0:0:0:
192,63,138086,2,0,B|233:109|306:107|345:59,1,165,2|2,0:1|0:1,0:0:0:0:
370,21,138686,1,0,0:0:0:0:
461,82,138986,1,0,0:0:0:0:
386,163,139286,6,0,L|398:289,1,110,2|0,0:1|0:0,0:0:0:0:
406,326,139736,2,0,B|377:363|326:370|289:346,1,110,2|0,0:1|0:0,0:0:0:0:
265,318,140186,2,0,L|189:327,1,55,0|4,0:3|0:3,0:0:0:0:
158,306,140486,2,0,B|127:275|81:269|45:287,2,110,2|0|0,0:1|0:1|0:1,0:0:0:0:
228,221,141386,1,8,0:0:0:0:
130,169,141686,6,0,B|112:117|112:117|122:52,1,110,2|0,0:1|0:0,0:0:0:0:
156,20,142136,2,0,B|203:-3|259:15|285:58,1,110,2|0,0:1|0:3,0:0:0:0:
303,63,142586,1,4,0:3:0:0:
307,172,142886,2,0,B|343:204|394:207|432:185,1,110,2|0,0:1|0:0,0:0:0:0:
461,174,143336,2,0,B|484:120|484:120|455:57,1,110,2|4,0:1|0:3,0:0:0:0:
428,30,143786,1,8,0:0:0:0:
324,66,144086,6,0,L|208:58,1,110,2|0,0:1|0:0,0:0:0:0:
166,86,144536,2,0,B|192:135|185:191|155:231,1,110,2|4,0:1|0:3,0:0:0:0:
149,241,144986,2,0,L|63:245,1,55,4|4,0:3|0:3,0:0:0:0:
49,210,145286,5,2,0:1:0:0:
84,105,145586,1,2,0:0:0:0:
193,93,145886,1,0,0:0:0:0:
271,170,146186,1,12,0:0:0:0:
284,279,146486,6,0,B|320:308|368:309|404:288,1,110,6|0,0:1|0:0,0:0:0:0:
439,277,146936,2,0,L|449:145,1,110,2|0,0:1|0:0,0:0:0:0:
454,112,147386,2,0,L|376:101,1,55,4|4,0:3|0:3,0:0:0:0:
375,54,147686,2,0,L|238:40,1,110,2|0,0:1|0:0,0:0:0:0:
226,81,148136,1,2,0:1:0:0:
226,81,148286,2,0,B|191:108|143:106|111:80,1,110,0|8,0:0|0:0,0:0:0:0:
24,137,148886,6,0,B|4:195|4:195|30:279,1,110,2|0,0:1|0:0,0:0:0:0:
39,292,149336,2,0,B|63:329|113:338|148:313,1,110,2|4,0:1|0:3,0:0:0:0:
172,278,149786,2,0,L|266:262,1,55,4|4,0:3|0:3,0:0:0:0:
268,303,150086,2,0,B|304:344|363:350|406:323,2,110,2|0|0,0:1|0:0|0:0,0:0:0:0:
357,238,150986,1,8,0:0:0:0:
446,301,151286,5,2,0:1:0:0:
502,206,151586,2,0,L|493:132,1,55,0|2,0:0|0:1,0:0:0:0:
489,96,151886,2,0,B|448:74|400:81|367:107,1,110,0|6,0:0|0:3,0:0:0:0:
284,144,152486,2,0,B|245:167|198:157|170:127,1,110,2|0,0:1|0:0,0:0:0:0:
98,64,153086,2,0,L|92:-5,2,55,0|4|10,0:0|0:3|0:0,0:0:0:0:
16,138,153686,6,0,L|22:262,1,110,2|2,0:3|0:3,0:0:0:0:
74,262,154136,2,0,L|80:386,1,110,2|6,0:3|0:3,0:0:0:0:
134,374,154586,1,0,0:0:0:0:
213,298,154886,2,0,L|212:222,2,55,2|2|6,0:0|0:0|0:0,0:0:0:0:
319,328,155486,2,0,L|320:404,2,55,6|6|6,0:0|0:0|0:0,0:0:0:0:
394,247,156086,6,0,B|411:196|391:143|352:113,1,110,2|0,0:0|0:0,0:0:0:0:
347,96,156536,1,2,0:0:0:0:
347,96,156686,2,0,L|212:90,1,110,0|8,0:0|0:0,0:0:0:0:
200,195,157286,2,0,L|347:205,1,110,2|0,0:0|0:0,0:0:0:0:
342,246,157736,2,0,B|374:289|435:295|475:262,1,110,2|0,0:0|0:0,0:0:0:0:
487,252,158186,1,8,0:0:0:0:
487,142,158486,6,0,B|476:108|445:86|409:86|383:102,1,110,2|0,0:0|0:0,0:0:0:0:
350,119,158936,1,2,0:0:0:0:
350,119,159086,2,0,B|308:131|308:131|225:106,1,110,0|8,0:0|0:0,0:0:0:0:
141,72,159686,2,0,L|147:201,1,110,2|0,0:0|0:0,0:0:0:0:
142,237,160136,2,0,B|113:268|70:277|34:263,2,110,10|0|0,0:0|0:0|0:0,0:0:0:0:
183,199,160886,6,0,B|220:182|220:182|316:203,1,110,2|0,0:0|0:0,0:0:0:0:
321,240,161336,1,2,0:0:0:0:
353,285,161486,2,0,B|316:302|316:302|220:281,1,110,0|8,0:0|0:0,0:0:0:0:
176,371,162086,2,0,L|57:346,1,110,2|0,0:0|0:0,0:0:0:0:
28,309,162536,2,0,B|13:267|19:223|40:188,1,110,2|0,0:0|0:0,0:0:0:0:
58,153,162986,1,0,0:0:0:0:
137,77,163286,6,0,B|177:112|180:173|146:211,1,110,2|0,0:0|0:0,0:0:0:0:
158,232,163736,2,0,B|192:269|246:274|285:250,1,110,2|0,0:0|0:0,0:0:0:0:
310,242,164186,2,0,L|301:187,1,55,10|0,0:0|0:0,0:0:0:0:
268,143,164486,1,2,0:0:0:0:
325,49,164786,1,2,0:0:0:0:
435,49,165086,1,10,0:0:0:0:
495,140,165386,1,10,0:0:0:0:
440,235,165686,6,0,L|441:360,1,110,4|2,0:0|0:0,0:0:0:0:
335,312,166286,2,0,L|274:316,2,55,0|2|8,0:0|0:0|0:0,0:0:0:0:
270,222,166886,6,0,L|192:227,1,55,0|0,0:0|0:0,0:0:0:0:
215,225,167336,2,0,B|177:178|177:112|211:63|259:42,1,165,0|8,0:0|0:0,0:0:0:0:
316,120,168086,6,0,L|437:102,1,110,0|0,0:0|0:0,0:0:0:0:
456,209,168686,2,0,L|535:195,2,55,0|2|8,0:0|0:0|0:0,0:0:0:0:
360,263,169286,6,0,L|366:331,1,55,0|0,0:0|0:0,0:0:0:0:
364,317,169736,2,0,B|300:346|229:331|181:288,1,165,8|8,0:0|0:0,0:0:0:0:
188,198,170486,5,0,0:0:0:0:
93,142,170786,2,0,L|32:120,2,55,0|2|0,0:0|0:0|0:0,0:0:0:0:
190,90,171386,2,0,L|190:34,2,55,8|10|0,0:0|0:0|0:0,0:0:0:0:
284,146,171986,2,0,L|345:124,2,55,0|4|0,0:0|0:3|0:0,0:0:0:0:
213,230,172586,1,8,0:0:0:0:
258,330,172886,5,2,0:3:0:0:
304,230,173186,2,0,L|315:151,1,55,2|2,0:3|0:3,0:0:0:0:
199,150,173636,2,0,L|183:76,1,55,6|2,0:3|0:3,0:0:0:0:
255,9,174086,1,2,0:0:0:0:
255,9,174386,1,6,0:0:0:0:
255,118,174686,2,0,L|242:198,1,55,6|6,0:0|0:0,0:0:0:0:
257,226,174986,2,0,L|270:306,1,55,10|2,0:0|0:0,0:0:0:0:
256,334,175286,2,0,B|209:377|135:370|94:316|96:260,1,220,0|0,0:0|0:0,0:0:0:0:
255,118,176486,6,0,L|372:114,1,110,6|0,0:1|0:0,0:0:0:0:
420,114,176936,2,0,B|455:141|467:185|455:224,1,110,2|0,0:1|0:0,0:0:0:0:
445,265,177386,2,0,L|378:265,1,55,4|4,0:3|0:3,0:0:0:0:
335,270,177686,2,0,B|325:322|275:355|221:347|188:314,1,165,2|2,0:1|0:1,0:0:0:0:
160,297,178286,1,0,0:0:0:0:
238,219,178586,1,8,0:0:0:0:
141,167,178886,6,0,B|100:140|91:85|118:47,1,110,2|0,0:1|0:0,0:0:0:0:
141,28,179336,2,0,B|183:12|183:12|262:29,1,110,2|0,0:1|0:0,0:0:0:0:
293,54,179786,2,0,L|312:127,1,55,4|4,0:3|0:3,0:0:0:0:
318,160,180086,1,2,0:1:0:0:
235,232,180386,1,2,0:0:0:0:
244,341,180686,1,2,0:0:0:0:
346,382,180986,1,8,0:0:0:0:
446,336,181286,6,0,B|426:282|426:282|441:209,1,110,2|0,0:1|0:0,0:0:0:0:
456,179,181736,2,0,B|478:143|470:97|438:69|401:64,1,110,2|0,0:1|0:0,0:0:0:0:
399,41,182186,1,6,0:3:0:0:
310,106,182486,2,0,L|191:92,1,110,2|0,0:1|0:0,0:0:0:0:
175,43,182936,2,0,L|61:71,1,110,2|4,0:1|0:3,0:0:0:0:
41,117,183386,1,8,0:0:0:0:
31,226,183686,6,0,B|64:262|118:264|154:236,1,110,2|0,0:1|0:0,0:0:0:0:
181,225,184136,2,0,B|215:191|268:191|302:221,1,110,2|4,0:1|0:3,0:0:0:0:
318,250,184586,2,0,L|314:332,1,55,6|4,0:3|0:3,0:0:0:0:
348,348,184886,1,2,0:1:0:0:
456,330,185186,1,2,0:0:0:0:
492,226,185486,1,0,0:0:0:0:
436,131,185786,2,0,L|363:118,1,55,8|4,0:0|0:3,0:0:0:0:
327,112,186086,6,0,B|291:146|237:147|201:119,1,110,6|0,0:1|0:0,0:0:0:0:
180,100,186536,2,0,L|175:262,1,110,2|0,0:1|0:0,0:0:0:0:
134,245,186986,2,0,L|146:331,1,55,4|4,0:3|0:3,0:0:0:0:
186,331,187286,6,0,B|239:286|319:300|354:359,1,165,2|2,0:1|0:1,0:0:0:0:
382,365,187886,1,0,0:0:0:0:
447,276,188186,1,8,0:0:0:0:
356,213,188486,6,0,B|321:160|321:160|323:98,1,110,2|0,0:1|0:0,0:0:0:0:
331,58,188936,2,0,B|288:83|236:74|204:42,1,110,2|0,0:1|0:0,0:0:0:0:
175,35,189386,2,0,L|104:33,1,55,4|4,0:3|0:3,0:0:0:0:
72,61,189686,2,0,B|39:100|37:154|60:194,2,110,2|2|2,0:1|0:0|0:0,0:0:0:0:
153,135,190586,2,0,L|234:138,2,55,8|0|2,0:0|0:0|0:1,0:0:0:0:
99,231,191186,6,0,L|121:337,1,55,0|2,0:0|0:1,0:0:0:0:
123,338,191486,2,0,B|163:361|163:361|250:352,1,110,0|6,0:0|0:3,0:0:0:0:
276,256,192086,2,0,B|317:226|374:239|400:282,1,110,2|0,0:1|0:0,0:0:0:0:
423,290,192536,1,2,0:1:0:0:
423,290,192686,2,0,L|421:166,1,110,0|8,0:0|0:0,0:0:0:0:
487,91,193286,5,2,0:3:0:0:
387,43,193586,2,0,L|327:27,1,55,2|2,0:3|0:3,0:0:0:0:
291,130,194036,2,0,L|228:144,1,55,2|4,0:3|0:3,0:0:0:0:
171,53,194486,2,0,B|147:48|124:54|106:68,1,55,2|2,0:3|0:0,0:0:0:0:
78,100,194786,2,0,B|62:118|56:141|58:163,1,55,2|6,0:0|0:0,0:0:0:0:
60,205,195086,2,0,B|77:246|116:270|156:272,1,110,2|10,0:0|0:0,0:0:0:0:
242,225,195686,6,0,B|299:220|299:220|373:262,1,110,6|2,0:1|0:0,0:0:0:0:
391,275,196136,2,0,B|437:268|468:226|462:182,1,110,2|2,0:1|0:0,0:0:0:0:
461,146,196586,1,4,0:3:0:0:
433,98,196736,1,4,0:3:0:0:
385,70,196886,2,0,B|333:57|333:57|271:73,1,110,2|2,0:1|0:0,0:0:0:0:
235,105,197336,1,2,0:1:0:0:
235,105,197486,2,0,L|106:88,1,110,0|8,0:0|0:0,0:0:0:0:
64,181,198086,6,0,L|193:198,1,110,2|2,0:1|0:0,0:0:0:0:
226,207,198536,2,0,B|253:246|250:295|225:330,1,110,2|2,0:1|0:0,0:0:0:0:
200,354,198986,1,4,0:3:0:0:
146,364,199136,1,4,0:3:0:0:
97,338,199286,6,0,B|83:285|83:285|90:205,1,110,2|2,0:1|0:0,0:0:0:0:
64,179,199736,2,0,B|75:124|75:124|53:31,1,110,2|2,0:1|0:0,0:0:0:0:
15,42,200186,1,10,0:0:0:0:
121,14,200486,6,0,B|157:46|208:49|246:26,1,110,2|2,0:1|0:0,0:0:0:0:
275,18,200936,2,0,L|405:30,1,110,2|2,0:1|0:0,0:0:0:0:
436,47,201386,1,6,0:3:0:0:
462,95,201536,1,4,0:3:0:0:
459,149,201686,2,0,B|425:190|434:251|478:280,1,110,2|2,0:1|0:0,0:0:0:0:
474,301,202136,2,0,B|458:342|422:369|383:375,1,110,2|6,0:1|0:3,0:0:0:0:
341,360,202586,1,8,0:0:0:0:
232,339,202886,6,0,B|204:302|204:302|137:276,1,110,2|2,0:1|0:0,0:0:0:0:
101,244,203336,1,2,0:1:0:0:
101,244,203486,2,0,B|84:210|93:170|122:145|155:140,1,110,0|4,0:0|0:3,0:0:0:0:
214,220,204086,5,2,0:1:0:0:
301,153,204386,1,2,0:0:0:0:
198,112,204686,1,0,0:0:0:0:
214,220,204986,1,8,0:0:0:0:
297,291,205286,6,0,B|345:308|396:289|422:249,1,110,6|2,0:1|0:0,0:0:0:0:
438,232,205736,2,0,L|434:106,1,110,2|2,0:1|0:0,0:0:0:0:
434,66,206186,1,4,0:3:0:0:
379,70,206336,1,4,0:3:0:0:
330,44,206486,2,0,B|287:13|229:19|195:55,1,110,2|2,0:1|0:0,0:0:0:0:
183,69,206936,1,2,0:1:0:0:
183,69,207086,2,0,L|200:198,1,110,0|8,0:0|0:0,0:0:0:0:
305,201,207686,6,0,L|288:330,1,110,2|2,0:1|0:0,0:0:0:0:
259,355,208136,2,0,B|223:378|178:375|146:353,1,110,2|6,0:1|0:3,0:0:0:0:
102,337,208586,1,0,0:0:0:0:
84,284,208736,1,4,0:3:0:0:
65,232,208886,2,0,B|56:187|56:187|78:124,2,110,2|2|0,0:1|0:0|0:0,0:0:0:0:
166,189,209786,2,0,L|247:185,1,55,8|0,0:1|0:0,0:0:0:0:
275,186,210086,5,2,0:1:0:0:
365,123,210386,2,0,L|350:49,1,55,2|2,0:0|0:1,0:0:0:0:
320,25,210686,2,0,B|279:14|238:44|234:86,1,110,0|4,0:0|0:3,0:0:0:0:
188,104,211136,1,4,0:3:0:0:
188,104,211286,2,0,L|65:93,1,110,2|2,0:1|0:0,0:0:0:0:
32,124,211736,1,2,0:1:0:0:
32,124,211886,2,0,L|36:246,1,110,0|8,0:0|0:0,0:0:0:0:
91,328,212486,5,2,0:3:0:0:
170,251,212786,2,0,L|187:163,1,55,2|2,0:3|0:3,0:0:0:0:
264,267,213236,2,0,L|293:354,2,55,6|2|6,0:3|0:2|0:3,0:0:0:0:
305,230,213686,2,0,L|332:107,1,110,2|6,0:0|0:0,0:0:0:0:
395,34,214286,2,0,B|417:37|435:48|449:62,1,55,6|6,0:0|0:0,0:0:0:0:
474,103,214586,2,0,B|482:123|482:144|476:163,1,55,10|6,0:0|0:0,0:0:0:0:
466,211,214886,6,2,B|425:256|358:262|311:229,1,165,6|2,0:0|0:0,0:1:0:0:
209,205,215636,2,0,L|143:251,2,55,4|0|0,0:3|0:0|0:0,0:0:0:0:
236,157,216086,2,2,B|224:105|176:70|122:73|84:101,1,165,2|2,0:0|0:0,0:1:0:0:
52,183,216836,2,0,L|-34:149,2,55,4|10|0,0:3|0:0|0:0,0:0:0:0:
61,237,217286,6,2,B|82:296|150:323|206:296,1,165,2|2,0:0|0:0,0:1:0:0:
266,216,218036,2,0,L|301:147,2,55,4|0|2,0:3|0:0|0:0,0:0:0:0:
287,266,218486,2,0,B|330:296|330:296|430:294,1,110,2|2,0:1|0:0,0:0:0:0:
441,286,218936,2,0,B|477:257|481:204|451:169,1,110,0|4,0:0|0:3,0:0:0:0:
439,136,219386,1,8,0:0:0:0:
364,55,219686,6,2,B|298:70|298:70|188:56,1,165,2|2,0:0|0:0,0:1:0:0:
106,113,220436,2,0,L|98:56,2,55,4|4|0,0:3|0:3|0:0,0:0:0:0:
113,167,220886,2,2,B|222:152|222:152|290:195,1,165,2|2,0:0|0:0,0:1:0:0:
350,254,221636,2,0,L|427:240,2,55,4|10|0,0:3|0:0|0:0,0:0:0:0:
312,294,222086,2,2,B|266:326|266:326|126:309,1,165,2|2,0:0|0:0,0:1:0:0:
57,267,222836,1,4,0:3:0:0:
57,267,222986,2,0,L|49:197,1,55,4|0,0:3|0:0,0:0:0:0:
47,157,223286,6,0,B|77:118|131:111|169:139,1,110,0|0,0:1|0:0,0:0:0:0:
197,146,223736,2,0,B|243:163|292:141|313:100,1,110,0|6,0:0|0:3,0:0:0:0:
322,72,224186,1,10,0:0:0:0:
418,19,224486,6,2,B|452:70|451:134|421:182,1,165,2|2,0:0|0:0,0:1:0:0:
358,259,225236,1,0,0:0:0:0:
358,259,225386,2,0,L|283:251,1,55,6|0,0:3|0:0,0:0:0:0:
249,242,225686,2,2,B|223:199|170:182|123:200|97:235,1,165,2|2,0:0|0:0,0:1:0:0:
75,329,226436,1,4,0:3:0:0:
75,329,226586,2,0,B|83:351|103:365|124:369,1,55,8|4,0:0|0:3,0:0:0:0:
167,375,226886,6,2,L|352:349,1,165,2|2,0:0|0:0,0:1:0:0:
403,269,227636,1,0,0:0:0:0:
403,269,227786,2,0,L|403:194,1,55,2|6,0:0|0:3,0:0:0:0:
432,167,228086,2,0,B|468:129|468:129|465:47,1,110,2|2,0:1|0:0,0:0:0:0:
361,36,228686,2,0,B|325:74|325:74|328:156,1,110,0|8,0:0|0:0,0:0:0:0:
219,156,229286,6,2,L|97:163,1,110,2|0,0:0|0:0,0:1:0:0:
54,164,229736,1,2,0:1:0:0:
113,256,230036,2,0,L|121:328,2,55,6|4|0,0:3|0:3|0:0,0:0:0:0:
168,250,230486,2,2,L|302:240,1,110,2|0,0:0|0:0,0:1:0:0:
332,242,230936,1,2,0:1:0:0:
398,154,231236,2,0,L|390:82,2,55,6|8|0,0:3|0:0|0:0,0:0:0:0:
434,195,231686,5,2,0:3:0:0:
357,273,231986,2,0,L|333:364,1,55,2|2,0:3|0:3,0:0:0:0:
267,245,232436,2,0,L|241:165,2,55,6|0|6,0:3|0:0|0:3,0:0:0:0:
236,291,232886,6,0,B|207:333|154:345|111:324,1,110,2|6,0:0|0:0,0:0:0:0:
140,333,233486,2,0,L|116:278,1,55,6|6,0:0|0:0,0:0:0:0:
140,231,233786,2,0,L|151:166,1,55,10|4,0:0|0:3,0:0:0:0:
119,129,234086,1,4,0:0:0:0:
